PELIS MEGA HD

General
Unique ID : 131499653482934208658778229915506569266 (0x62EDE97AECBC65DBDE2A745EBA61F032)
Complete name : What Men Want (2019) Dual 1080p [wWw.PelisMEGAHD.Pe].mkv
Format : Matroska
Format version : Version 4 / Version 2
File size : 4.14 GiB
Duration : 1h 57mn
Overall bit rate : 5 059 Kbps
Movie name : What Men Want (2019) Dual 1080p [wWw.PelisMEGAHD.Pe]
Encoded date : UTC 2019-04-29 21:04:33
Writing application : mkvmerge v31.0.0 ('Dolores In A Shoestand') 64-bit
Writing library : libebml v1.3.6 + libmatroska v1.4.9
DURATION : 01:52:46.899000000
NUMBER_OF_FRAMES : 2447
NUMBER_OF_BYTES : 88217
_STATISTICS_WRITING_APP : mkvmerge v31.0.0 ('Dolores In A Shoestand') 64-bit
_STATISTICS_WRITING_DATE_UTC : 2019-04-29 21:04:33
_STATISTICS_TAGS : BPS DURATION NUMBER_OF_FRAMES NUMBER_OF_BYTES

Video
ID : 1
Format : AVC
Format/Info : Advanced Video Codec
Format profile : High@L4.0
Format settings, CABAC : Yes
Format settings, ReFrames : 4 frames
Codec ID : V_MPEG4/ISO/AVC
Bit rate : 4 000 Kbps
Width : 1 920 pixels
Height : 800 pixels
Display aspect ratio : 2.40:1
Frame rate mode : Variable
Color space : YUV
Chroma subsampling : 4:2:0
Bit depth : 8 bits
Scan type : Progressive
Title : [wWw.PelisMEGAHD.Pe]
Writing library : x264 core 155 r2917M 0a84d98
Encoding settings : cabac=1 / ref=3 / deblock=1:0:0 / analyse=0x3:0x113 / me=hex / subme=7 / psy=1 / psy_rd=1.00:0.00 / mixed_ref=1 / me_range=16 / chroma_me=1 / trellis=1 / 8x8dct=1 / cqm=0 / deadzone=21,11 / fast_pskip=1 / chroma_qp_offset=-2 / threads=12 / lookahead_threads=2 / sliced_threads=0 / nr=0 / decimate=1 / interlaced=0 / bluray_compat=0 / constrained_intra=0 / bframes=3 / b_pyramid=2 / b_adapt=1 / b_bias=0 / direct=1 / weightb=1 / open_gop=0 / weightp=2 / keyint=24 / keyint_min=2 / scenecut=40 / intra_refresh=0 / rc_lookahead=24 / rc=2pass / mbtree=1 / bitrate=4000 / ratetol=1.0 / qcomp=0.60 / qpmin=0 / qpmax=69 / qpstep=4 / cplxblur=20.0 / qblur=0.5 / vbv_maxrate=4000 / vbv_bufsize=4000 / nal_hrd=none / filler=0 / ip_ratio=1.40 / aq=1:1.00
Default : Yes
Forced : No
DURATION : 01:57:06.358000000
NUMBER_OF_FRAMES : 168464
NUMBER_OF_BYTES : 3484973533
_STATISTICS_WRITING_APP : mkvmerge v31.0.0 ('Dolores In A Shoestand') 64-bit
_STATISTICS_WRITING_DATE_UTC : 2019-04-29 21:04:33
_STATISTICS_TAGS : BPS DURATION NUMBER_OF_FRAMES NUMBER_OF_BYTES

Audio #1
ID : 2
Format : AC-3
Format/Info : Audio Coding 3
Mode extension : CM (complete main)
Format settings, Endianness : Big
Codec ID : A_AC3
Duration : 1h 57mn
Bit rate mode : Constant
Bit rate : 640 Kbps
Channel(s) : 6 channels
Channel positions : Front: L C R, Side: L R, LFE
Sampling rate : 48.0 KHz
Bit depth : 16 bits
Compression mode : Lossy
Stream size : 536 MiB (13%)
Title : Latino [wWw.PelisMEGAHD.Pe]
Language : Spanish
Default : Yes
Forced : Yes
DURATION : 01:57:06.336000000
NUMBER_OF_FRAMES : 219573
NUMBER_OF_BYTES : 393474816
_STATISTICS_WRITING_APP : mkvmerge v31.0.0 ('Dolores In A Shoestand') 64-bit
_STATISTICS_WRITING_DATE_UTC : 2019-04-29 21:04:33
_STATISTICS_TAGS : BPS DURATION NUMBER_OF_FRAMES NUMBER_OF_BYTES

Audio #2
ID : 3
Format : AC-3
Format/Info : Audio Coding 3
Mode extension : CM (complete main)
Format settings, Endianness : Big
Codec ID : A_AC3
Duration : 1h 57mn
Bit rate mode : Constant
Bit rate : 448 Kbps
Channel(s) : 6 channels
Channel positions : Front: L C R, Side: L R, LFE
Sampling rate : 48.0 KHz
Bit depth : 16 bits
Compression mode : Lossy
Stream size : 375 MiB (9%)
Title : Ingles [wWw.PelisMEGAHD.Pe]
Language : English
Default : No
Forced : No

Text #1
ID : 4
Format : UTF-8
Codec ID : S_TEXT/UTF8
Codec ID/Info : UTF-8 Plain Text
Title : Sub. Forzados [wWw.PelisMEGAHD.Pe]
Language : Spanish
Default : Yes
Forced : Yes

Text #2
ID : 5
Format : UTF-8
Codec ID : S_TEXT/UTF8
Codec ID/Info : UTF-8 Plain Text
Title : Sub. Latino [wWw.PelisMEGAHD.Pe]
Language : Spanish
Default : No
Forced : No

Text #3
ID : 6
Format : UTF-8
Codec ID : S_TEXT/UTF8
Codec ID/Info : UTF-8 Plain Text
Title : Sub. Ingles [wWw.PelisMEGAHD.Pe]
Language : English
Default : No
Forced : No


Reportar Error Visitas: 86