PELIS MEGA HD

General
Unique ID : 120663702629839123054648146263694509400 (0x5AC6FBDAF13AB3C1D93228C136FA0558)
Complete name : Quiet Comes the Dawn (2019) WEB-DL Dual 1080p [wWw.PelisMEGAHD.Pe].mkv
Format : Matroska
Format version : Version 4 / Version 2
File size : 3.57 GiB
Duration : 1h 37mn
Overall bit rate : 5 239 Kbps
Movie name : Quiet Comes the Dawn (2019) WEB-DL Dual 1080p [wWw.PelisMEGAHD.Pe]
Encoded date : UTC 2019-06-10 14:48:03
Writing application : mkvmerge v31.0.0 ('Dolores In A Shoestand') 64-bit
Writing library : libebml v1.3.6 + libmatroska v1.4.9
DURATION : 01:37:41.248000000
NUMBER_OF_FRAMES : 183164
NUMBER_OF_BYTES : 281339904
_STATISTICS_WRITING_APP : mkvmerge v31.0.0 ('Dolores In A Shoestand') 64-bit
_STATISTICS_WRITING_DATE_UTC : 2019-06-10 14:48:03
_STATISTICS_TAGS : BPS DURATION NUMBER_OF_FRAMES NUMBER_OF_BYTES

Video
ID : 1
Format : AVC
Format/Info : Advanced Video Codec
Format profile : High@L4.0
Format settings, CABAC : Yes
Format settings, ReFrames : 5 frames
Codec ID : V_MPEG4/ISO/AVC
Duration : 1h 37mn
Bit rate : 4 495 Kbps
Width : 1 908 pixels
Height : 792 pixels
Display aspect ratio : 2.40:1
Frame rate mode : Constant
Frame rate : 23.976 fps
Color space : YUV
Chroma subsampling : 4:2:0
Bit depth : 8 bits
Scan type : Progressive
Bits/(Pixel*Frame) : 0.124
Stream size : 3.07 GiB (86%)
Title : [wWw.PelisMEGAHD.Pe]
Language : Russian
Default : Yes
Forced : No
Color primaries : BT.709
Transfer characteristics : BT.709
Matrix coefficients : BT.709

Audio #1
ID : 2
Format : AC-3
Format/Info : Audio Coding 3
Mode extension : CM (complete main)
Format settings, Endianness : Big
Codec ID : A_AC3
Duration : 1h 37mn
Bit rate mode : Constant
Bit rate : 256 Kbps
Channel(s) : 2 channels
Channel positions : Front: L R
Sampling rate : 48.0 KHz
Bit depth : 16 bits
Compression mode : Lossy
Stream size : 179 MiB (5%)
Title : Latino [wWw.PelisMEGAHD.Pe]
Language : Spanish
Default : Yes
Forced : Yes

Audio #2
ID : 3
Format : AC-3
Format/Info : Audio Coding 3
Mode extension : CM (complete main)
Format settings, Endianness : Big
Codec ID : A_AC3
Duration : 1h 37mn
Bit rate mode : Constant
Bit rate : 384 Kbps
Channel(s) : 6 channels
Channel positions : Front: L C R, Side: L R, LFE
Sampling rate : 48.0 KHz
Bit depth : 16 bits
Compression mode : Lossy
Stream size : 268 MiB (7%)
Title : Ruso [wWw.PelisMEGAHD.Pe]
Language : Russian
Default : No
Forced : No


Reportar Error Visitas: 53