General
Unique ID : 263407150175309845105657799825821719259 (0xC62A5F2EDD1C2615CBBF1151C28EDADB)
Complete name : John Wick Chapter 3 – Parabellum (2019) 1080p BluRay REMUX [wWw.PelisMEGAHD.Pe].mkv
Format : Matroska
Format version : Version 4
File size : 30.8 GiB
Duration : 2 h 11 min
Overall bit rate mode : Variable
Overall bit rate : 33.6 Mb/s
Movie name : John Wick Chapter 3 – Parabellum (2019) 1080p BluRay REMUX [wWw.PelisMEGAHD.Pe]
Encoded date : UTC 2019-08-31 19:33:33
Writing application : mkvmerge v35.0.0 ('All The Love In The World') 64-bit
Writing library : libebml v1.3.9 + libmatroska v1.5.2

Video
ID : 1
Format : AVC
Format/Info : Advanced Video Codec
Format profile : High@L4.1
Format settings : CABAC / 4 Ref Frames
Format settings, CABAC : Yes
Format settings, Reference : 4 frames
Codec ID : V_MPEG4/ISO/AVC
Duration : 2 h 11 min
Bit rate mode : Variable
Bit rate : 25.0 Mb/s
Maximum bit rate : 30.0 Mb/s
Width : 1 920 pixels
Height : 1 080 pixels
Display aspect ratio : 16:9
Frame rate mode : Constant
Frame rate : 24.000 FPS
Color space : YUV
Chroma subsampling : 4:2:0
Bit depth : 8 bits
Scan type : Progressive
Bits/(Pixel*Frame) : 0.503
Stream size : 22.9 GiB (74%)
Title : [wWw.PelisMEGAHD.Pe]
Language : Italian
Default : Yes
Forced : Yes
Color range : Limited
Color primaries : BT.709
Transfer characteristics : BT.709
Matrix coefficients : BT.709

Audio #1
ID : 2
Format : AC-3
Format/Info : Audio Coding 3
Commercial name : Dolby Digital
Codec ID : A_AC3
Duration : 2 h 11 min
Bit rate mode : Constant
Bit rate : 640 kb/s
Channel(s) : 6 channels
Channel layout : L R C LFE Ls Rs
Sampling rate : 48.0 kHz
Frame rate : 31.250 FPS (1536 SPF)
Bit depth : 16 bits
Compression mode : Lossy
Stream size : 600 MiB (2%)
Title : Latino AC3 5.1 [wWw.PelisMEGAHD.Pe]
Language : Spanish
Service kind : Complete Main
Default : Yes
Forced : Yes

Audio #2
ID : 3
Format : DTS XLL
Format/Info : Digital Theater Systems
Commercial name : DTS-HD Master Audio
Codec ID : A_DTS
Duration : 2 h 11 min
Bit rate mode : Variable
Bit rate : 3 829 kb/s
Channel(s) : 6 channels
Channel layout : C L R Ls Rs LFE
Sampling rate : 48.0 kHz
Frame rate : 93.750 FPS (512 SPF)
Bit depth : 24 bits
Compression mode : Lossless
Stream size : 3.51 GiB (11%)
Title : Latino DTS 5.1 [wWw.PelisMEGAHD.Pe]
Language : Spanish
Default : No
Forced : No

Audio #3
ID : 4
Format : DTS XLL
Format/Info : Digital Theater Systems
Commercial name : DTS-HD Master Audio
Codec ID : A_DTS
Duration : 2 h 11 min
Bit rate mode : Variable
Bit rate : 4 117 kb/s
Channel(s) : 6 channels
Channel layout : C L R Ls Rs LFE
Sampling rate : 48.0 kHz
Frame rate : 93.750 FPS (512 SPF)
Bit depth : 24 bits
Compression mode : Lossless
Stream size : 3.77 GiB (12%)
Title : Ingles DTS 5.1 [wWw.PelisMEGAHD.Pe]
Language : English
Default : No
Forced : No

Text #1
ID : 5
Format : UTF-8
Codec ID : S_TEXT/UTF8
Codec ID/Info : UTF-8 Plain Text
Duration : 1 h 30 min
Bit rate : 0 b/s
Count of elements : 30
Stream size : 640 Bytes (0%)
Title : Sub. Forzados [wWw.PelisMEGAHD.Pe]
Language : Spanish
Default : Yes
Forced : Yes

Text #2
ID : 6
Format : UTF-8
Codec ID : S_TEXT/UTF8
Codec ID/Info : UTF-8 Plain Text
Duration : 2 h 0 min
Bit rate : 24 b/s
Count of elements : 733
Stream size : 22.0 KiB (0%)
Title : Sub. Latino [wWw.PelisMEGAHD.Pe]
Language : Spanish
Default : No
Forced : No

Text #3
ID : 7
Format : UTF-8
Codec ID : S_TEXT/UTF8
Codec ID/Info : UTF-8 Plain Text
Duration : 1 h 59 min
Bit rate : 24 b/s
Count of elements : 764
Stream size : 21.3 KiB (0%)
Title : Sub. Ingles [wWw.PelisMEGAHD.Pe]
Language : English
Default : No
Forced : No

Text #4
ID : 8
Format : PGS
Muxing mode : zlib
Codec ID : S_HDMV/PGS
Codec ID/Info : Picture based subtitle format used on BDs/HD-DVDs
Duration : 2 h 0 min
Bit rate : 17.4 kb/s
Count of elements : 1466
Stream size : 15.0 MiB (0%)
Title : Sub. Latino [wWw.PelisMEGAHD.Pe]
Language : Spanish
Default : No
Forced : No

Text #5
ID : 9
Format : PGS
Muxing mode : zlib
Codec ID : S_HDMV/PGS
Codec ID/Info : Picture based subtitle format used on BDs/HD-DVDs
Duration : 1 h 59 min
Bit rate : 18.7 kb/s
Count of elements : 1528
Stream size : 16.1 MiB (0%)
Title : Sub. Ingles [wWw.PelisMEGAHD.Pe]
Language : English
Default : No
Forced : No


Reportar Error Visitas: 94