General
Unique ID : 134078717122659753663006533665841480697 (0x64DE9F229065D0B65FFC81DD3B2C03F9)
Complete name : Back to the Future (1985) BDRemux 4K 2160p [wWw.PelisMEGAHD.Pe].mkv
Format : Matroska
Format version : Version 4 / Version 2
File size : 63.7 GiB
Duration : 1h 56mn
Overall bit rate mode : Variable
Overall bit rate : 78.5 Mbps
Movie name : Back to the Future (1985) BDRemux 4K 2160p [wWw.PelisMEGAHD.Pe]
Encoded date : UTC 2020-10-14 19:26:46
Writing application : mkvmerge v41.0.0 ('Smarra') 64-bit
Writing library : libebml v1.3.9 + libmatroska v1.5.2
DURATION : 01:50:06.726000000
NUMBER_OF_FRAMES : 1530
NUMBER_OF_BYTES : 49910
_STATISTICS_WRITING_APP : mkvmerge v41.0.0 ('Smarra') 64-bit
_STATISTICS_WRITING_DATE_UTC : 2020-10-14 19:26:46
_STATISTICS_TAGS : BPS DURATION NUMBER_OF_FRAMES NUMBER_OF_BYTES

Video
ID : 1
Format : V_MPEGH/ISO/HEVC
Codec ID : V_MPEGH/ISO/HEVC
Duration : 1h 56mn
Width : 3 840 pixels
Height : 2 160 pixels
Display aspect ratio : 16:9
Frame rate mode : Constant
Frame rate : 23.976 fps
Title : [wWw.PelisMEGAHD.Pe]
Language : English
Default : Yes
Forced : No

Audio #1
ID : 2
Format : AC-3
Format/Info : Audio Coding 3
Mode extension : CM (complete main)
Format settings, Endianness : Big
Codec ID : A_AC3
Duration : 1h 56mn
Bit rate mode : Constant
Bit rate : 640 Kbps
Channel(s) : 6 channels
Channel positions : Front: L C R, Side: L R, LFE
Sampling rate : 48.0 KHz
Bit depth : 16 bits
Compression mode : Lossy
Stream size : 531 MiB (1%)
Title : Latino AC3 5.1 [wWw.PelisMEGAHD.Pe]
Language : Spanish
Default : Yes
Forced : Yes

Audio #2
ID : 3
Format : TrueHD
Codec ID : A_TRUEHD
Duration : 1h 56mn
Bit rate mode : Variable
Maximum bit rate : 7 626 Kbps
Channel(s) : 8 channels
Channel positions : Front: L C R, Side: L R, Back: L R, LFE
Sampling rate : 48.0 KHz
Compression mode : Lossless
Title : Inglés Atmos 7.1 [wWw.PelisMEGAHD.Pe]
Language : English
Default : No
Forced : No

Audio #3
ID : 4
Format : AC-3
Format/Info : Audio Coding 3
Mode extension : CM (complete main)
Format settings, Endianness : Big
Codec ID : A_AC3
Duration : 1h 56mn
Bit rate mode : Constant
Bit rate : 448 Kbps
Channel(s) : 6 channels
Channel positions : Front: L C R, Side: L R, LFE
Sampling rate : 48.0 KHz
Bit depth : 16 bits
Compression mode : Lossy
Stream size : 372 MiB (1%)
Title : Inglés AC3 5.1 [wWw.PelisMEGAHD.Pe]
Language : English
Default : No
Forced : No

Text #1
ID : 5
Format : UTF-8
Codec ID : S_TEXT/UTF8
Codec ID/Info : UTF-8 Plain Text
Title : Sub. Forzados [wWw.PelisMEGAHD.Pe]
Language : Spanish
Default : Yes
Forced : Yes

Text #2
ID : 6
Format : UTF-8
Codec ID : S_TEXT/UTF8
Codec ID/Info : UTF-8 Plain Text
Title : Sub. Latino [wWw.PelisMEGAHD.Pe]
Language : Spanish
Default : No
Forced : No

Text #3
ID : 7
Format : UTF-8
Codec ID : S_TEXT/UTF8
Codec ID/Info : UTF-8 Plain Text
Title : Sub. Inglés [wWw.PelisMEGAHD.Pe]
Language : English
Default : No
Forced : No

Text #4
ID : 8
Format : PGS
Muxing mode : zlib
Codec ID : S_HDMV/PGS
Codec ID/Info : The same subtitle format used on BDs/HD-DVDs
Title : Sub. Latino [wWw.PelisMEGAHD.Pe]
Language : Spanish
Default : No
Forced : No


Reportar Error Visitas: 31