General
Unique ID : 40553634654801292310243620664273967701 (0x1E82588F19C239578F537F4CA4969A55)
Complete name : Run (2020) 1080p BluRay REMUX [wWw.PelisMEGAHD.Pe].mkv
Format : Matroska
Format version : Version 4 / Version 2
File size : 18.1 GiB
Duration : 1h 29mn
Overall bit rate mode : Variable
Overall bit rate : 28.9 Mbps
Movie name : Run (2020) 1080p BluRay REMUX [wWw.PelisMEGAHD.Pe]
Encoded date : UTC 2021-04-04 16:05:29
Writing application : mkvmerge v41.0.0 ('Smarra') 64-bit
Writing library : libebml v1.3.9 + libmatroska v1.5.2
DURATION : 01:24:03.586000000
NUMBER_OF_FRAMES : 635
NUMBER_OF_BYTES : 17753
_STATISTICS_WRITING_APP : mkvmerge v41.0.0 ('Smarra') 64-bit
_STATISTICS_WRITING_DATE_UTC : 2021-04-04 16:05:29
_STATISTICS_TAGS : BPS DURATION NUMBER_OF_FRAMES NUMBER_OF_BYTES

Video
ID : 1
Format : AVC
Format/Info : Advanced Video Codec
Format profile : [email protected]
Format settings, CABAC : Yes
Format settings, ReFrames : 4 frames
Codec ID : V_MPEG4/ISO/AVC
Duration : 1h 29mn
Bit rate mode : Variable
Bit rate : 25.7 Mbps
Maximum bit rate : 35.0 Mbps
Width : 1 920 pixels
Height : 1 080 pixels
Display aspect ratio : 16:9
Frame rate mode : Constant
Frame rate : 24.000 fps
Color space : YUV
Chroma subsampling : 4:2:0
Bit depth : 8 bits
Scan type : Progressive
Bits/(Pixel*Frame) : 0.517
Stream size : 16.1 GiB (89%)
Title : [wWw.PelisMEGAHD.Pe]
Language : English
Default : No
Forced : No
DURATION : 01:29:35.667000000
NUMBER_OF_FRAMES : 129016
NUMBER_OF_BYTES : 17570492499
_STATISTICS_WRITING_APP : mkvmerge v41.0.0 ('Smarra') 64-bit
_STATISTICS_WRITING_DATE_UTC : 2021-04-04 16:05:29
_STATISTICS_TAGS : BPS DURATION NUMBER_OF_FRAMES NUMBER_OF_BYTES

Audio #1
ID : 2
Format : AC-3
Format/Info : Audio Coding 3
Mode extension : CM (complete main)
Format settings, Endianness : Big
Codec ID : A_AC3
Duration : 1h 29mn
Bit rate mode : Constant
Bit rate : 640 Kbps
Channel(s) : 6 channels
Channel positions : Front: L C R, Side: L R, LFE
Sampling rate : 44.1 KHz
Bit depth : 16 bits
Compression mode : Lossy
Stream size : 410 MiB (2%)
Title : Latino AC3 5.1 [wWw.PelisMEGAHD.Pe]
Language : Spanish
Default : Yes
Forced : Yes
DURATION : 01:29:35.691000000
NUMBER_OF_FRAMES : 503971
NUMBER_OF_BYTES : 1171869196
_STATISTICS_WRITING_APP : mkvmerge v41.0.0 ('Smarra') 64-bit
_STATISTICS_WRITING_DATE_UTC : 2021-04-04 16:05:29
_STATISTICS_TAGS : BPS DURATION NUMBER_OF_FRAMES NUMBER_OF_BYTES

Audio #2
ID : 3
Format : DTS
Format/Info : Digital Theater Systems
Format profile : MA / Core
Codec ID : A_DTS
Duration : 1h 29mn
Bit rate mode : Variable
Bit rate : 1 576 Kbps / 1 510 Kbps
Channel(s) : 6 channels
Channel positions : Front: L C R, Side: L R, LFE
Sampling rate : 48.0 KHz
Bit depth : 16 bits
Compression mode : Lossless / Lossy
Title : Inglés DTS 5.1 [wWw.PelisMEGAHD.Pe]
Language : English
Default : No
Forced : No

Audio #3
ID : 4
Format : AC-3
Format/Info : Audio Coding 3
Mode extension : CM (complete main)
Format settings, Endianness : Big
Codec ID : A_AC3
Duration : 1h 29mn
Bit rate mode : Constant
Bit rate : 384 Kbps
Channel(s) : 6 channels
Channel positions : Front: L C R, Side: L R, LFE
Sampling rate : 48.0 KHz
Bit depth : 16 bits
Compression mode : Lossy
Stream size : 246 MiB (1%)
Title : Inglés AC3 5.1 [wWw.PelisMEGAHD.Pe]
Language : English
Default : No
Forced : No

Text #1
ID : 5
Format : UTF-8
Codec ID : S_TEXT/UTF8
Codec ID/Info : UTF-8 Plain Text
Title : Sub. Forzados [wWw.PelisMEGAHD.Pe]
Language : Spanish
Default : Yes
Forced : Yes

Text #2
ID : 6
Format : UTF-8
Codec ID : S_TEXT/UTF8
Codec ID/Info : UTF-8 Plain Text
Title : Sub. Latino [wWw.PelisMEGAHD.Pe]
Language : Spanish
Default : No
Forced : No

Text #3
ID : 7
Format : UTF-8
Codec ID : S_TEXT/UTF8
Codec ID/Info : UTF-8 Plain Text
Title : Sub. Inglés [wWw.PelisMEGAHD.Pe]
Language : English
Default : No
Forced : No


Reportar Error Visitas: 19