General
Unique ID : 292338328427877223003932318687077247806 (0xDBEE50664F83AA4C9CD72B9D693EAB3E)
Complete name : Tom and Jerry (2021) 1080p BluRay REMUX [wWw.PelisMEGAHD.Pe].mkv
Format : Matroska
Format version : Version 4 / Version 2
File size : 22.5 GiB
Duration : 1h 41mn
Overall bit rate mode : Variable
Overall bit rate : 31.9 Mbps
Movie name : Tom and Jerry (2021) 1080p BluRay REMUX [wWw.PelisMEGAHD.Pe]
Encoded date : UTC 2021-04-30 16:56:44
Writing application : mkvmerge v41.0.0 ('Smarra') 64-bit
Writing library : libebml v1.3.9 + libmatroska v1.5.2
DURATION : 01:40:50.495000000
NUMBER_OF_FRAMES : 2268
NUMBER_OF_BYTES : 71919
_STATISTICS_WRITING_APP : mkvmerge v41.0.0 ('Smarra') 64-bit
_STATISTICS_WRITING_DATE_UTC : 2021-04-30 16:56:44
_STATISTICS_TAGS : BPS DURATION NUMBER_OF_FRAMES NUMBER_OF_BYTES

Video
ID : 1
Format : AVC
Format/Info : Advanced Video Codec
Format profile : [email protected]
Format settings, CABAC : Yes
Format settings, ReFrames : 4 frames
Codec ID : V_MPEG4/ISO/AVC
Duration : 1h 41mn
Bit rate mode : Variable
Maximum bit rate : 31.9 Mbps
Width : 1 920 pixels
Height : 1 080 pixels
Display aspect ratio : 16:9
Frame rate mode : Constant
Frame rate : 23.976 fps
Color space : YUV
Chroma subsampling : 4:2:0
Bit depth : 8 bits
Scan type : Progressive
Title : [wWw.PelisMEGAHD.Pe]
Language : zxx
Default : Yes
Forced : No

Audio #1
ID : 2
Format : AC-3
Format/Info : Audio Coding 3
Mode extension : CM (complete main)
Format settings, Endianness : Big
Codec ID : A_AC3
Duration : 1h 41mn
Bit rate mode : Constant
Bit rate : 384 Kbps
Channel(s) : 6 channels
Channel positions : Front: L C R, Side: L R, LFE
Sampling rate : 48.0 KHz
Bit depth : 16 bits
Compression mode : Lossy
Delay relative to video : 1s 524ms
Stream size : 278 MiB (1%)
Title : Latino AC3 5.1 [wWw.PelisMEGAHD.Pe]
Language : Spanish
Default : Yes
Forced : Yes

Audio #2
ID : 3
Format : TrueHD
Codec ID : A_TRUEHD
Duration : 1h 41mn
Bit rate mode : Variable
Maximum bit rate : 4 767 Kbps
Channel(s) : 8 channels
Channel positions : Front: L C R, Side: L R, Back: L R, LFE
Sampling rate : 48.0 KHz
Compression mode : Lossless
Title : Inglés Atmos 7.1 [wWw.PelisMEGAHD.Pe]
Language : English
Default : No
Forced : No

Audio #3
ID : 4
Format : AC-3
Format/Info : Audio Coding 3
Mode extension : CM (complete main)
Format settings, Endianness : Big
Codec ID : A_AC3
Duration : 1h 41mn
Bit rate mode : Constant
Bit rate : 448 Kbps
Channel(s) : 6 channels
Channel positions : Front: L C R, Side: L R, LFE
Sampling rate : 48.0 KHz
Bit depth : 16 bits
Compression mode : Lossy
Stream size : 324 MiB (1%)
Title : Inglés AC3 5.1 [wWw.PelisMEGAHD.Pe]
Language : English
Default : No
Forced : No

Text #1
ID : 5
Format : UTF-8
Codec ID : S_TEXT/UTF8
Codec ID/Info : UTF-8 Plain Text
Title : Sub. Latino [wWw.PelisMEGAHD.Pe]
Language : Spanish
Default : No
Forced : No

Text #2
ID : 6
Format : UTF-8
Codec ID : S_TEXT/UTF8
Codec ID/Info : UTF-8 Plain Text
Title : Sub. Inglés [wWw.PelisMEGAHD.Pe]
Language : English
Default : No
Forced : No

Text #3
ID : 7
Format : PGS
Muxing mode : zlib
Codec ID : S_HDMV/PGS
Codec ID/Info : The same subtitle format used on BDs/HD-DVDs
Title : Sub. English [wWw.PelisMEGAHD.Pe]
Language : English
Default : No
Forced : No


Reportar Error Visitas: 23