General
Unique ID : 197518230196724442570900995894499954265 (0x9498A09DEE2473CFEF08EB5194A94E59)
Complete name : The Croods A New Age (2020) 3D 1080p BluRay REMUX [wWw.PelisMEGAHD.Pe].mk3d
Format : Matroska
Format version : Version 4 / Version 2
File size : 31.8 GiB
Duration : 1h 35mn
Overall bit rate mode : Variable
Overall bit rate : 47.8 Mbps
Movie name : The Croods A New Age (2020) 3D 1080p BluRay REMUX [wWw.PelisMEGAHD.Pe]
Encoded date : UTC 2021-05-01 15:54:22
Writing application : mkvmerge v41.0.0 ('Smarra') 64-bit
Writing library : libebml v1.3.9 + libmatroska v1.5.2
DURATION : 01:35:04.960000000
NUMBER_OF_FRAMES : 2404
NUMBER_OF_BYTES : 63804
_STATISTICS_WRITING_APP : mkvmerge v41.0.0 ('Smarra') 64-bit
_STATISTICS_WRITING_DATE_UTC : 2021-05-01 15:54:22
_STATISTICS_TAGS : BPS DURATION NUMBER_OF_FRAMES NUMBER_OF_BYTES

Video
ID : 1
Format : AVC
Format/Info : Advanced Video Codec
Format profile : Stereo [email protected] / [email protected]
MultiView_Count : 2
MultiView_Layout : Both Eyes laced in one block (left eye first)
Format settings, CABAC : Yes
Format settings, ReFrames : 3 frames
Codec ID : V_MPEG4/ISO/AVC
Duration : 1h 35mn
Bit rate mode : Variable
Maximum bit rate : 32.0 Mbps
Width : 1 920 pixels
Height : 1 080 pixels
Display aspect ratio : 16:9
Frame rate mode : Constant
Frame rate : 23.976 fps
Color space : YUV
Chroma subsampling : 4:2:0
Bit depth : 8 bits
Scan type : Progressive
Title : [wWw.PelisMEGAHD.Pe]
Default : Yes
Forced : No

Audio #1
ID : 2
Format : AC-3
Format/Info : Audio Coding 3
Mode extension : CM (complete main)
Format settings, Endianness : Big
Codec ID : A_AC3
Duration : 1h 35mn
Bit rate mode : Constant
Bit rate : 640 Kbps
Channel(s) : 6 channels
Channel positions : Front: L C R, Side: L R, LFE
Sampling rate : 48.0 KHz
Bit depth : 16 bits
Compression mode : Lossy
Stream size : 436 MiB (1%)
Title : Latino AC3 5.1 [wWw.PelisMEGAHD.Pe]
Language : Spanish
Default : Yes
Forced : Yes
DURATION : 01:35:14.560000000
NUMBER_OF_FRAMES : 178580
NUMBER_OF_BYTES : 320015360
_STATISTICS_WRITING_APP : mkvmerge v41.0.0 ('Smarra') 64-bit
_STATISTICS_WRITING_DATE_UTC : 2021-05-01 15:54:22
_STATISTICS_TAGS : BPS DURATION NUMBER_OF_FRAMES NUMBER_OF_BYTES

Audio #2
ID : 3
Format : TrueHD
Codec ID : A_TRUEHD
Duration : 1h 35mn
Bit rate mode : Variable
Maximum bit rate : 4 263 Kbps
Channel(s) : 8 channels
Channel positions : Front: L C R, Side: L R, Back: L R, LFE
Sampling rate : 48.0 KHz
Compression mode : Lossless
Title : Inglés Atmos 7.1 [wWw.PelisMEGAHD.Pe]
Language : English
Default : No
Forced : No

Audio #3
ID : 4
Format : AC-3
Format/Info : Audio Coding 3
Mode extension : CM (complete main)
Format settings, Endianness : Big
Codec ID : A_AC3
Duration : 1h 35mn
Bit rate mode : Constant
Bit rate : 448 Kbps
Channel(s) : 6 channels
Channel positions : Front: L C R, Side: L R, LFE
Sampling rate : 48.0 KHz
Bit depth : 16 bits
Compression mode : Lossy
Stream size : 305 MiB (1%)
Title : Inglés AC3 5.1 [wWw.PelisMEGAHD.Pe]
Language : English
Default : No
Forced : No

Text #1
ID : 5
Format : UTF-8
Codec ID : S_TEXT/UTF8
Codec ID/Info : UTF-8 Plain Text
Title : Sub. Forzados [wWw.PelisMEGAHD.Pe]
Language : Spanish
Default : Yes
Forced : Yes

Text #2
ID : 6
Format : UTF-8
Codec ID : S_TEXT/UTF8
Codec ID/Info : UTF-8 Plain Text
Title : Sub. Latino [wWw.PelisMEGAHD.Pe]
Language : Spanish
Default : No
Forced : No

Text #3
ID : 7
Format : UTF-8
Codec ID : S_TEXT/UTF8
Codec ID/Info : UTF-8 Plain Text
Title : Sub. Inglés [wWw.PelisMEGAHD.Pe]
Language : English
Default : No
Forced : No

Text #4
ID : 8
Format : PGS
Muxing mode : zlib
Codec ID : S_HDMV/PGS
Codec ID/Info : The same subtitle format used on BDs/HD-DVDs
Title : Sub. Inglés [wWw.PelisMEGAHD.Pe]
Language : English
Default : No
Forced : No


Reportar Error Visitas: 18