General
Unique ID : 174714065872288869123127872122401659308 (0x8370B4828AADEF28F592BE0C529919AC)
Complete name : Shrek (2001) BDRemux 4K 2160p [wWw.PelisMEGAHD.Pe].mkv
Format : Matroska
Format version : Version 4 / Version 2
File size : 61.4 GiB
Duration : 1h 30mn
Overall bit rate mode : Variable
Overall bit rate : 97.1 Mbps
Movie name : Shrek (2001) BDRemux 4K 2160p [wWw.PelisMEGAHD.Pe]
Encoded date : UTC 2021-05-04 06:07:54
Writing application : mkvmerge v41.0.0 ('Smarra') 64-bit
Writing library : libebml v1.3.9 + libmatroska v1.5.2
DURATION : 01:30:31.776000000
NUMBER_OF_FRAMES : 169743
NUMBER_OF_BYTES : 304179456
_STATISTICS_WRITING_APP : mkvmerge v41.0.0 ('Smarra') 64-bit
_STATISTICS_WRITING_DATE_UTC : 2021-05-04 06:07:54
_STATISTICS_TAGS : BPS DURATION NUMBER_OF_FRAMES NUMBER_OF_BYTES

Video
ID : 1
Format : V_MPEGH/ISO/HEVC
Codec ID : V_MPEGH/ISO/HEVC
Duration : 1h 30mn
Bit rate : 92.7 Mbps
Width : 3 840 pixels
Height : 2 160 pixels
Display aspect ratio : 16:9
Frame rate mode : Constant
Frame rate : 23.976 fps
Bits/(Pixel*Frame) : 0.466
Stream size : 58.6 GiB (95%)
Title : [wWw.PelisMEGAHD.Pe]
Default : Yes
Forced : No

Audio #1
ID : 2
Format : AC-3
Format/Info : Audio Coding 3
Mode extension : CM (complete main)
Format settings, Endianness : Big
Codec ID : A_AC3
Duration : 1h 30mn
Bit rate mode : Constant
Bit rate : 448 Kbps
Channel(s) : 6 channels
Channel positions : Front: L C R, Side: L R, LFE
Sampling rate : 48.0 KHz
Bit depth : 16 bits
Compression mode : Lossy
Stream size : 290 MiB (0%)
Title : Latino AC3 5.1 [wWw.PelisMEGAHD.Pe]
Language : Spanish
Default : Yes
Forced : Yes

Audio #2
ID : 3
Format : DTS
Format/Info : Digital Theater Systems
Format profile : MA / Core
Codec ID : A_DTS
Duration : 1h 30mn
Bit rate mode : Variable
Bit rate : 1 639 Kbps / 1 510 Kbps
Channel(s) : 8 channels / 6 channels
Channel positions : Front: L C R, Side: L R, Back: L R, LFE / Front: L C R, Side: L R, LFE
Sampling rate : 48.0 KHz
Bit depth : 24 bits
Compression mode : Lossless / Lossy
Title : Inglés DTS:X 7.1 [wWw.PelisMEGAHD.Pe]
Language : English
Default : No
Forced : No

Audio #3
ID : 4
Format : AC-3
Format/Info : Audio Coding 3
Mode extension : CM (complete main)
Format settings, Endianness : Big
Codec ID : A_AC3
Duration : 1h 30mn
Bit rate mode : Constant
Bit rate : 448 Kbps
Channel(s) : 6 channels
Channel positions : Front: L C R, Side: L R, LFE
Sampling rate : 48.0 KHz
Bit depth : 16 bits
Compression mode : Lossy
Stream size : 290 MiB (0%)
Title : Inglés AC3 5.1 [wWw.PelisMEGAHD.Pe]
Language : English
Default : No
Forced : No

Text #1
ID : 5
Format : UTF-8
Codec ID : S_TEXT/UTF8
Codec ID/Info : UTF-8 Plain Text
Title : Sub. Latino [wWw.PelisMEGAHD.Pe]
Language : Spanish
Default : No
Forced : No

Text #2
ID : 6
Format : UTF-8
Codec ID : S_TEXT/UTF8
Codec ID/Info : UTF-8 Plain Text
Title : Sub. Inglés [wWw.PelisMEGAHD.Pe]
Language : English
Default : No
Forced : No

Text #3
ID : 7
Format : PGS
Muxing mode : zlib
Codec ID : S_HDMV/PGS
Codec ID/Info : The same subtitle format used on BDs/HD-DVDs
Title : Sub. English [wWw.PelisMEGAHD.Pe]
Language : English
Default : No
Forced : No

Text #4
ID : 8
Format : PGS
Muxing mode : zlib
Codec ID : S_HDMV/PGS
Codec ID/Info : The same subtitle format used on BDs/HD-DVDs
Title : Sub. Latin American [wWw.PelisMEGAHD.Pe]
Language : Spanish
Default : No
Forced : No


Reportar Error Visitas: 17